&title=ゴーストルール [DX]
&wholebpm=210
&artist=DECO*27
&des=Jack
&shortid=10552
&genre=niconicoボーカロイド
&cabinet=DX
&version=maimai DX UNiVERSE
&chartconverter=Neskol
&lv_2=3
&des_2=
&lv_3=7+
&des_3=
&lv_4=9+
&des_4=サファ太
&lv_5=12+
&des_5=Jack
&des_6=
&inote_2=
(210){1},
{1},
{1},
{1},
{1},
{1},
{1},
{1},
{1},
{1},
{1}1,
{1},
{1}1,
{1},
{1}8,
{1},
{1}8,
{1},
{1}1,
{1}1,
{1}2,
{1}2,
{1}3,
{1}3,
{1}4,
{1}4/5,
{1}5,
{1}5,
{1}6,
{1}6,
{1}7,
{1}7,
{1}8,
{1}1/8,
{1}8-5[4:5],
{1},
{1},
{1}1,
{1}1-4[4:5],
{1},
{1},
{1}8,
{1}8h[1:1],
{1},
{2}8b,8,
{1}8,
{2}7,7,
{1}7,
{2}6,6,
{1}6,
{2}5,5,
{1}4/5,
{2}4,4,
{1}4,
{2}3,3,
{1}3,
{2}2,2,
{1}2,
{2}1,1,
{1}1/8,
{1}B1,
{1}B2,
{1}B3,
{1}B4,
{1}B5,
{1}B6,
{1}B7,
{1}C1,
{1}1xh[1:2],
{1},
{1},
{1},
{1}8h[1:2],
{1},
{1},
{1},
{1}1h[1:1]/2h[1:1],
{1},
{1}3h[1:1]/4h[1:1],
{1},
{1}5h[1:1]/6h[1:1],
{1},
{1}7h[1:1]/8h[1:1],
{1},
{2}8b,8,
{2}7,7,
{2}6,6,
{1}4/5,
{2}4b,4,
{2}3,3,
{2}2,2,
{1}1/8,
{2}1,1,
{2}2,2,
{2}3,3,
{1}3/4,
{2}5,5,
{2}6,6,
{2}7,7,
{1}7/8,
{2}8,8,
{2}7,7,
{2}6,6,
{2}4/5,4/5,
{2}4,4,
{2}3,3,
{2}2,2,
{1}1x/8x,
{1}B1/B8,
{1},
{1}B2/B7,
{1},
{1}B3/B6,
{1},
{1}C1xh[2:3],
{1},
{1},
{1},
E
&inote_3=
(210){1},
{1},
{1}C1xh[1:7],
{1},
{1},
{1},
{1},
{1},
{1},
{1},
{1}7-4[2:1],
{4}3,3,3/4,,
{1}2-5[2:1],
{4}6,6,5/6,,
{1}7-4[2:1],
{4}3,3,3/4,,
{1}2-5[2:1],
{4}6,6,4b/5b,,
{2}6h[2:1],5,
{2}3h[2:1],4,
{2}6h[2:1],5,
{2}3h[4:1]/4h[4:1],3/4,
{2}2h[2:1],1,
{2}7h[2:1],8,
{2}2h[2:1],1,
{2}7h[4:1]/8h[4:1],7/8,
{4}6,6,5,,
{4}3,3,4,,
{4}6,6,5,,
{4}4,4,3/5,,
{4}2,2,1,,
{4}7,7,8,,
{4}2,2,1,,
{4}8,1,2/7,,
{1}2q6[2:1],
{1}7p3[2:1],
{1}2>5[2:1],
{2}6,5/6,
{1}4>1[2:1],
{1}8<5[2:1],
{1}4>1[2:1],
{2}8,1/8,
{1}C1,
{1},
{4}7b,7,7/8,7/8,
{4}2,2,1/2,1/2,
{4}3,3,4,4,
{4}5,5,4/6,,
{4}3b,3,3/4,3/4,
{4}6,6,5/6,5/6,
{4}7,7,8,8,
{4}1,1,2/8,,
{2}3h[2:1],4h[2:1],
{2}5h[2:1],6,
{4}7,7,7/8,,
{4}6,6,5/6,,
{2}6h[2:1],5h[2:1],
{2}4h[2:1],3,
{4}2,2,1/2,,
{4}3,3,4/5,,
{1}6<1[2:1],
{4}2,2,1/2,,
{1}3>8[2:1],
{4}7,7,7/8,,
{1}7<4[2:1],
{4}3,3,3/4,,
{1}2>5[2:1],
{1}6,
{1}B5,
{1}B6,
{1}B7,
{1}B8,
{1}B1,
{1}B2,
{1}B3,
{1}B4,
{2}6xh[2:1],5,
{2}3h[2:1],4,
{2}6h[2:1],5,
{2}3h[4:1]/4h[4:1],3/4,
{4}2,2,1/2,,
{4}7,7,7/8,,
{4}2,1,8,7,
{1}1h[2:1]/8h[2:1],
{4}2b,1/2,2,1/2,
{4}7,7/8,7,7/8,
{4}6,6,5,5,
{4}4,4,3/5,,
{4}6b,5/6,6,5/6,
{4}3,3/4,3,3/4,
{4}2,2,1,1,
{4}8,8,1/7,,
{2}2h[2:1],1h[2:1],
{2}8h[2:1],7,
{4}6,6,5,5,
{4}5/6,5/6,5/6,,
{2}7h[2:1],8h[2:1],
{2}1h[2:1],2,
{4}3,3,4,4,
{4}3/4,3/4,2b/5b,,
{2}6h[2:1],5h[2:1],
{2}4h[2:1],3,
{4}2,2,1,1,
{4}1/2,1/2,1/2,,
{2}3h[2:1],4h[2:1],
{2}5h[2:1],6,
{4}7,7,8,8,
{4}1/8,2/7,3/6,,
{1}7z3[1:1],
{1},
{1}2s6[1:1],
{1},
{1}7p4[4:5],
{1},
{1}3q6[4:5],
{1},
{1},
{1},
E
&inote_4=
(210){1},
{1},
{2}3h[8:15],4,
{4},5,5,,
{2}6h[8:15],5,
{4},4,4,,
{2}3h[8:15],4,
{4},6,6,,
{2}7h[1:1],8,
{1}1s5[2:1],
{8}6xh[2:1],,,5,5,,5/6,,
{4}4,4,3/5,,
{8}3h[2:1]/5,,,4,4,,3/4,,
{4}5,6,4/7,,
{4}5h[8:3]/6h[8:3],,5/6,4/5,
{4}4,4,3/5,,
{4}3h[8:3]/4h[8:3],,3/4,4/5,
{4}3/6,3/6,4/5,,
{4}E4,E3,E2,C1,
{4}E6,E7,B8/E8,,
{4}B1,C1,E5/E6,,
{4}B8,C1,E4/E5,,
{4}E6,E7,E8,C1,
{4}E4,E3,B1/E2,,
{4}8,8,1,1,
{2}1h[4:1]/8h[4:1],2x/7x,
{4}2,3,4/5,4/5,
{4}3,2/4,1,1/5,
{4}2,2,3/4,2v5[8:3]/5,
{4},,,4x/6x,
{4}7,6,4/5,4/5,
{4}6,5/7,8,4/8,
{4}7,5/6,4,3-7[8:3]/5-1[8:3],
{4},,,8x,
{4}7h[8:3]/8h[8:3],,7/8,6,
{2}5h[4:1]/7h[4:1],3h[4:1]/4h[4:1],
{4}1h[8:3]/2h[8:3],,1/2,3,
{2}2h[4:1]/4h[4:1],3/5,
{4}4h[8:3]/7h[8:3],,4/7,8,
{4}5/7,5/6,3/4,2/4,
{1}1>6[4:3],
{1}8<3[4:3],
{1}C1xh[2:3],
{1},
{8}1b/8b,,2b/7b,,3h[4:1],,4,4,
{8}3,,2/5,2/5,,3/4,3/4,,
{4}6h[4:1],5h[4:1],7h[4:1],8h[4:1],
{8}7,,7/8,7/8,,,4x/5x,,
{8}4b/5b,,3b/6b,,7h[4:1],,8,8,
{8}7,,1/6,1/6,,7/8,7/8,,
{4}2h[4:1],1h[4:1],3h[4:1],4h[4:1],
{8}3,,2/5,2/5,,,1x/8x,,
{4}8h[4:1],7h[4:1],6h[4:1],5h[4:1],
{4}4h[4:1],3h[4:1],2h[4:1],1,
{8}3/8,,2,2,1,,1/2,,
{8}1/8,,2/7,2/7,,,3b/6b,,
{4}4h[4:1],3h[4:1],2h[4:1],1h[4:1],
{4}8h[4:1],7h[4:1],6h[4:1],5,
{8}4/7,,6,6,5,,4/5,,
{8}3/4,,2x/5x,2xh[8:3]/5x,,,1b,,
{2}8-5[4:1],1-4[4:1],
{4}E5,C1,E2/E3,,
{2}8-5[4:1],1-4[4:1],
{4}E5,C1,E7/E8,,
{2}2-5[4:1],6-1[4:1],
{4}E2,C1,E6/E7,,
{2}7-4[4:1],3-8[4:1],
{4}7,7,7x/8x,,
{1}6h[1:2],
{2}5,5,
{1}3h[1:2],
{2}4,4,
{1}7h[1:2],
{2}6,6,
{1}4h[2:3],
{1}C1xh[2:1],
{4}2,2,1/2h[1:1],,
{4}E2,E3,E4,,
{4}5,5,4/5h[1:1],,
{4}E5,E6,E7,,
{4}7,7,7h[1:1]/8,,
{4}E8,E7,E6,,
{4}E4,B2/E3,E6,B7/E7,
{1}C1xh[2:1],
{8}1b/8b,,2b/7b,,3,3,4,,
{8}2/5,,6,6,5,,4/7,,
{4}3h[4:1],4h[4:1],2h[4:1],1h[4:1],
{8}8,,7/8,7/8,,,5x/6x,,
{8}4b/5b,,3b/6b,,7,7,8,,
{8}1/6,,2,2,1,,3/8,,
{4}7h[4:1],5h[4:1],3h[4:1],2h[4:1],
{8}4,,1x/5x,1b/5b,,,3x/4x,,
{4}3b/4b,2x/5x,5b/6b,4x/7x,
{4}3b/4b,2x/5x,4/5,4/5,
{8}6,6,5,,4/7,,3,3,
{8}4,,2/5,2/5,,,1x/2x,,
{4}1b/2b,3x/8x,7b/8b,1x/6x,
{4}1b/2b,3x/8x,1/8,1/8,
{8}7,7,8,,1/6,,2,2,
{8}1,,3/8,3/8,,,3x/4x,,
{4}3b/4b,1x/8x,5b/6b,1x/8x,
{4}3b/4b,1x/8x,2b/7b,2b/7b,
{8}3,3,4,,2/5,,1,1,
{8}8,,2/7,2/7,,,5x/6x,,
{4}5b/6b,1x/2x,3b/4b,7x/8x,
{4}5b/6b,1x/2x,3b/4b,7b/8b,
{8}2,2,1,,3/8,,2h[4:1]/7V15[8:5],,
{1},
{8}3h[1:2],,,4h[8:9],,,,,
{1},
{8}5h[2:3],,,4h[8:13],,,,,
{1},
{8}6h[2:3],,,5h[1:2],,,,,
{1},
{1}C1xh[2:3],
{1},
{1},
{1},
E
&inote_5=
(210){1},
{1},
{8}3h[4:1],,4,,3/5,,,6h[4:1],
{8},5,6,,4/7,,,,
{8}6h[4:1],,5,,4/6,,,3h[4:1],
{8},4,3,,2/5,,,,
{8}4h[4:1],,5,,4/6,,,7h[4:1],
{8},5,6,,4/7,,,,
{8}5h[4:1],,4,,3/5,,,2h[4:1],
{8},4,3>6[16:5],,C1f,,,,
{8}7h[4:1],,5,6h[4:1],,4,5h[4:1],,
{8}3,4h[4:1],,2,3v4[4:1],,,,
{8}2h[4:1],,4,3h[4:1],,5,4h[4:1],,
{8}6,5h[4:1],,7,6v5[4:1],,,,
{8}8h[4:1],,6,7h[4:1],,5,6h[4:1],,
{8}4,5h[4:1],,3,4v5[4:1],,,,
{8}1h[4:1],,3,2h[4:1],,4,3h[4:1],,
{8}5,4h[4:1],,6,5,5,4,4,
{8}3h[4:1],,5,3,4,,3/5,3,
{8},2,3/5,4,,,5,3,
{8}3h[4:1],,5,3h[4:1],,4,3/5,2,
{8},2,3/5,3-5[8:1],,,6x,,
{8}6h[4:1],,4,6,5,,4/6,6,
{8},7,4/6,5,,,4,6,
{8}6h[4:1],,4,6h[4:1],,5,4/6,7,
{8}5,6,4,5,3-5[8:1],,7x,,
{8}6,5,6,4,4/6,,3/6,3,
{8}6,4,6,5,7<4[8:1],,7x,3,
{8}3,,5/7,5,7,4,7,3,
{8}7,2,1/7,1,8<5[8:1],,2x/8x,,
{8}3,4,3/4,,3/5,,3/6,6,
{8}3,5,3,4,2>5[8:1],,2x,6,
{8}6,,2,8,2/7,6,2,4,
{8}2,6,2,8,1-5[8:1],,1x/8<3[4:5],,
{8}3h[4:1],,,2h[4:1],,,1h[4:1],,
{8},8h[4:1],,,2/6,,1/8<3[4:5],,
{8}3h[4:1],,,2h[4:1],,,1h[4:1],,
{8},8h[4:1],,,2/6,,1>6[4:5]/8,,
{8}6h[4:1],,,7h[4:1],,,8h[4:1],,
{8},1h[4:1],,,3/7,,1>6[4:5]/8,,
{8}6h[4:1],,,7h[4:1],,,8h[4:1],,
{8},1h[4:1],,,3/7,,1/8,,
{8}C1/E5,,,C1/E7,,,C1/E3,,
{8},C1/E1,,,C1,,,,
{8}2b>5[8:1]/6b,,8xh[4:1],,6,7,4/6,3,
{8}2/8qq8[16:5],,1,1h[8:3],,,8x-4[8:1],,
{8}2-8[8:1],2,6-2[8:1],6,4-6[8:1],4,8-4[8:1],8,
{8}3>6[4:1],,5,5,,,1/7-3[8:1],,
{8}3b-7[8:1],,7b,,6/8,1,2/4,5,
{8}4qq4[16:5]/6,,8,8h[8:3],,,5x-1[8:1],,
{8}7-5[8:1],7,3-1[8:1],3,7-3[8:1],,2x/7x,,
{8}1/8,2/7,3/6,4/5w1[8:1],,,,,
{4}1>5[4:1],5<1[4:1],1>5[4:1],5<1[4:1],
{4}1>5[4:1],5<1[4:1],1>5[4:1],5<5[8:5],
{1}C1f,
{8}5/7-3[8:1],,1,1h[8:5],8,8,8,8,
{4}8<4[4:1],4>8[4:1],8<4[4:1],4>8[4:1],
{4}8<4[4:1],4>8[4:1],8<4[4:1],4>4[8:5],
{1}C1f,
{8}2/4,3,5/7,6-3[8:1],,,E1,,
{8}2h[4:1],,4,3h[4:1],,5,4-2[8:1],,
{8}6-4[8:1],,1,,3,3,5,4,
{8}7h[4:1],,5,6h[4:1],,4,5-7[8:1],,
{8}3-5[8:1],,8,,6,6,4,5,
{8}1h[4:1],,4,3h[4:1],,6,5-3[8:1],,
{8}7-3[8:1],,1,,2,2,4,3,
{8}8h[4:1],,5,6h[4:1],,3,4-6[8:1],,
{8}2-6[8:1],,8,,7,7,5,6,
{1}2h[1:1],
{1}3h[1:1],
{1}4h[1:1],
{2}5h[2:1],6h[2:1],
{1}7h[1:1],
{1}5h[1:1],
{1}4h[1:1],
{2}2q5[4:3],C1,
{8}6,,6,,B5,,,4h[4:1],
{8},5,4,,E5,,,,
{8}3,,3,,B4,,,5h[4:1],
{8},4,5,,E5,,,,
{8}6,,6,,E6,,,3h[4:1],
{8},4,3,,E4,,,,
{4}6,5,4,3>6[2:1],
{1}C1xh[2:1],
{8}3b/7b<4[8:1],,1xh[4:1],,3,2,3/5,6,
{8}1pp1[16:5]/7,,8,8h[8:3],,,1x-5[8:1],,
{8}7-1[8:1],7,3-7[8:1],3,5-3[8:1],5,1-5[8:1],1,
{8}7s3[4:1],,2,2,,,2x<7[8:1],,
{8}7b>2[8:1],,2b,,1/8,7,4/6,3,
{8}2/5pp5[16:5],,1,1h[8:3],,,4x-8[8:1],,
{8}2x-4[8:1],2,6x-8[8:1],6,2x-6[8:1],2,8x-4[8:1],8x,
{8}3xpp6[8:5],,7x,7xh[8:3],,,C1f,,
{4}8x<4[4:1],4x>8[4:1],8x<4[4:1],4x>8[4:1],
{4}8x<4[4:1],4x>8[4:1],8x<4[4:1],4x>4[8:5],
{1}C1f,
{8}2-6[8:1]/4,,8,8h[8:5],1x,1x,1x,1x,
{4}1x>5[4:1],5x<1[4:1],1x>5[4:1],5x<1[4:1],
{4}1x>5[4:1],5x<1[4:1],1x>5[4:1],5x<5[8:5],
{1}C1f,
{8}4/5,,2/7,2/7,1x/8x<4[8:1],,4>8[4:1],,
{4}8b<8[2:1],C1f,8b<8[2:1],C1f,
{4}8b<8[2:1],C1f,8b,C1f,
{8}2x/7x,,1/8,2/7,2-6[8:1]/7,,8,,
{8}7-3[8:1],,1,1,2x/6x,2x/6x,2x/6x,2x/6x,
{4}1b>5[4:1],5x<1[4:1],1b>1[2:1],C1f,
{4}1b>1[2:1],C1f,1b,C1f,
{8}2x/7x,,1x/8x,2/7,2-5[8:1]/7-4[8:1],,2x/7x,,
{8}3x/6x,,1/8,1b/8b,,,,,
{8},,3,,4,,5,5,
{8},6,6,5,,,,7,
{8}7,,6,6,,5,,4,
{8},7,5,5,,,,,
{8},6,6,,5,,4,4,
{8},3,3,4,,,,2,
{8}2,,3,3,,4,,5,
{8}5,2-6[8:1],4,4,,,,,
{1},
{1},
{1},
E
